<?xml version="1.0" standalone="no"?>
<!DOCTYPE svg PUBLIC "-//W3C//DTD SVG 1.1//EN" "http://www.w3.org/Graphics/SVG/1.1/DTD/svg11.dtd" >
<svg xmlns="http://www.w3.org/2000/svg" xmlns:xlink="http://www.w3.org/1999/xlink" version="1.1">
<metadata>
Created by FontForge 20170924 at Tue Jan 31 22:51:31 2023
 By www
By Ray Larabie. Accents and kerning by Chikako Larabie. http://typodermicfonts.com/pages/license
</metadata>
<defs>
<font id="ZrnicRg-Regular" horiz-adv-x="491" >
  <font-face 
    font-family="Zrnic Rg"
    font-weight="400"
    font-stretch="normal"
    units-per-em="1000"
    panose-1="2 11 6 6 4 8 2 4 1 4"
    ascent="750"
    descent="-250"
    x-height="555"
    cap-height="701"
    bbox="-85 -220 975 939"
    underline-thickness="20"
    underline-position="-143"
    stemh="60"
    stemv="102"
    unicode-range="U+0020-2122"
  />
    <missing-glyph />
    <glyph glyph-name="copyright" unicode="&#x28;C&#x29;" horiz-adv-x="638" 
d="M42 535c0 118 43 166 150 166h254c107 0 150 -48 150 -166v-374c0 -113 -42 -161 -150 -161h-254c-108 0 -150 48 -150 161v374zM544 168v360c0 104 -32 135 -108 135h-234c-76 0 -108 -31 -108 -135v-360c0 -87 32 -132 108 -132h234c76 0 108 45 108 132zM261 448v-191
c0 -46 13 -70 44 -70h99v-33h-117c-62 0 -86 39 -86 103v191c0 67 25 106 86 106h116v-34h-98c-31 0 -44 -17 -44 -72z" />
    <glyph glyph-name="registered" unicode="&#x28;R&#x29;" horiz-adv-x="638" 
d="M42 535c0 118 43 166 150 166h254c107 0 150 -48 150 -166v-374c0 -113 -42 -161 -150 -161h-254c-108 0 -150 48 -150 161v374zM544 168v360c0 104 -32 135 -108 135h-234c-76 0 -108 -31 -108 -135v-360c0 -87 32 -132 108 -132h234c76 0 108 45 108 132zM441 447
c0 -77 -25 -94 -51 -102c26 -9 52 -28 52 -99v-92h-60v92c0 63 -15 82 -47 82h-49v34h50c30 0 45 19 45 79c0 61 -15 79 -45 79h-75v-366h-60v400h147c68 0 93 -31 93 -107z" />
    <glyph glyph-name="space" unicode=" " horiz-adv-x="236" 
 />
    <glyph glyph-name="exclam" unicode="!" horiz-adv-x="214" 
d="M159 703v-507h-105v507h105zM159 98v-98h-105v98h105z" />
    <glyph glyph-name="quotedbl" unicode="&#x22;" horiz-adv-x="343" 
d="M42 701h94l-16 -250h-62zM206 701h94l-16 -250h-62z" />
    <glyph glyph-name="numbersign" unicode="#" horiz-adv-x="509" 
d="M206 701l-13 -220h137l13 220h63l-13 -220h102v-63h-105l-8 -137h108v-63h-112l-12 -218h-63l12 218h-137l-12 -218h-63l12 218h-101v63h105l8 137h-108v63h111l13 220h63zM190 418l-8 -137h137l8 137h-137z" />
    <glyph glyph-name="dollar" unicode="$" horiz-adv-x="461" 
d="M428 242c0 -114 -44 -167 -161 -167h-11v-75h-66v75h-144v58h201c57 0 88 7 88 97c0 78 -15 89 -98 89h-75c-99 0 -134 43 -134 157c0 97 40 154 152 154h10v71h66v-71h117v-58h-168c-55 0 -84 -9 -84 -85c0 -74 14 -87 84 -87h70c114 0 153 -34 153 -158z" />
    <glyph glyph-name="percent" unicode="%" horiz-adv-x="698" 
d="M42 623c0 63 18 88 77 88h66c60 0 78 -25 78 -88v-174c0 -63 -18 -88 -78 -88h-66c-59 0 -77 25 -77 88v174zM197 449v174c0 47 -3 52 -32 52h-26c-28 0 -32 -5 -32 -52v-174c0 -47 4 -52 32 -52h26c29 0 32 5 32 52zM621 701l-494 -701h-65l494 701h65zM434 252
c0 63 18 88 77 88h66c60 0 78 -25 78 -88v-174c0 -63 -18 -88 -78 -88h-66c-59 0 -77 25 -77 88v174zM589 78v174c0 47 -3 52 -32 52h-26c-28 0 -32 -5 -32 -52v-174c0 -47 4 -52 32 -52h26c29 0 32 5 32 52z" />
    <glyph glyph-name="ampersand" unicode="&#x26;" horiz-adv-x="472" 
d="M438 353h-46v-293h67v-60h-258c-116 0 -165 66 -165 191c0 106 38 176 85 192c-43 25 -75 60 -75 154c0 97 43 164 156 164h166v-60h-142c-45 0 -77 -21 -77 -113c0 -89 11 -116 69 -116h220v-59zM141 197c0 -104 35 -137 85 -137h78v293h-86c-58 0 -77 -51 -77 -156z
" />
    <glyph glyph-name="quotesingle" unicode="'" horiz-adv-x="179" 
d="M42 701h94l-16 -250h-62z" />
    <glyph glyph-name="parenleft" unicode="(" horiz-adv-x="359" 
d="M168 649v-689c0 -74 19 -121 90 -121h81v-59h-93c-98 0 -166 55 -166 181v687c0 126 68 181 166 181h93v-59h-81c-71 0 -90 -47 -90 -121z" />
    <glyph glyph-name="parenright" unicode=")" horiz-adv-x="359" 
d="M191 -40v689c0 74 -19 121 -90 121h-81v59h93c98 0 166 -55 166 -181v-687c0 -126 -68 -181 -166 -181h-93v59h81c71 0 90 47 90 121z" />
    <glyph glyph-name="asterisk" unicode="*" horiz-adv-x="428" 
d="M26 543l19 57l145 -53l-6 154h60l-5 -155l145 53l18 -56l-149 -43l95 -122l-48 -35l-86 130l-87 -129l-48 35l96 122z" />
    <glyph glyph-name="plus" unicode="+" 
d="M276 153h-61v166h-165v61h165v164h61v-164h165v-61h-165v-166z" />
    <glyph glyph-name="comma" unicode="," horiz-adv-x="192" 
d="M155 98l-42 -256h-63v256h105z" />
    <glyph glyph-name="hyphen" unicode="-" horiz-adv-x="237" 
d="M219 354v-60h-201v60h201z" />
    <glyph glyph-name="period" unicode="." horiz-adv-x="205" 
d="M155 98v-98h-105v98h105z" />
    <glyph glyph-name="slash" unicode="/" horiz-adv-x="305" 
d="M224 701h81l-257 -811h-83z" />
    <glyph glyph-name="zero" unicode="0" horiz-adv-x="516" 
d="M42 525c0 118 26 176 152 176h128c126 0 152 -58 152 -176v-354c0 -113 -26 -171 -152 -171h-128c-126 0 -152 58 -152 171v354zM367 171v354c0 97 -7 116 -77 116h-64c-73 0 -77 -19 -77 -116v-354c0 -81 4 -111 77 -111h64c70 0 77 30 77 111z" />
    <glyph glyph-name="one" unicode="1" horiz-adv-x="221" 
d="M171 701v-701h-106v641h-56v60h162z" />
    <glyph glyph-name="two" unicode="2" horiz-adv-x="478" 
d="M142 187v-127h290v-60h-393v192c0 148 34 200 175 200h51c71 0 82 35 82 127c0 97 -27 122 -82 122h-197v60h222c113 0 154 -45 154 -178c0 -160 -35 -194 -136 -194h-63c-88 0 -103 -30 -103 -142z" />
    <glyph glyph-name="three" unicode="3" horiz-adv-x="430" 
d="M288 197c0 105 -19 131 -77 131h-95v59h95c58 0 69 34 69 137c0 96 -32 117 -77 117h-173v60h197c113 0 156 -67 156 -184c0 -108 -33 -139 -75 -159c47 -16 86 -61 86 -167c0 -125 -50 -191 -166 -191h-200v60h175c50 0 85 33 85 137z" />
    <glyph glyph-name="four" unicode="4" horiz-adv-x="461" 
d="M452 188v-56h-62v-132h-94v131h-283v61l260 509h117v-513h62zM117 188h179v365z" />
    <glyph glyph-name="five" unicode="5" horiz-adv-x="495" 
d="M458 223c0 -165 -53 -223 -151 -223h-264v60h231c60 0 81 44 81 149c0 115 -21 142 -73 142h-234v350h367v-60h-260v-228h151c104 0 152 -52 152 -190z" />
    <glyph glyph-name="six" unicode="6" horiz-adv-x="500" 
d="M464 244v-73c0 -113 -26 -171 -152 -171h-118c-126 0 -152 58 -152 171v354c0 118 26 176 152 176h195v-60h-163c-73 0 -77 -19 -77 -116v-354c0 -81 4 -111 77 -111h54c70 0 77 30 77 111v73c0 97 -4 116 -77 116h-78v60h110c126 0 152 -58 152 -176z" />
    <glyph glyph-name="seven" unicode="7" horiz-adv-x="406" 
d="M17 701h380v-45l-199 -656h-112l202 641h-271v60z" />
    <glyph glyph-name="eight" unicode="8" horiz-adv-x="520" 
d="M316 0h-113c-116 0 -166 66 -166 191c0 106 39 151 86 167c-42 20 -75 51 -75 159c0 117 43 184 156 184h111c113 0 156 -67 156 -184c0 -108 -33 -139 -75 -159c47 -16 86 -61 86 -167c0 -125 -50 -191 -166 -191zM142 197c0 -104 35 -137 85 -137h65c50 0 85 33 85 137
c0 105 -19 131 -77 131h-81c-58 0 -77 -26 -77 -131zM292 641h-65c-45 0 -77 -21 -77 -117c0 -103 11 -137 69 -137h81c58 0 69 34 69 137c0 96 -32 117 -77 117z" />
    <glyph glyph-name="nine" unicode="9" horiz-adv-x="502" 
d="M38 434v96c0 113 26 171 152 171h118c126 0 152 -58 152 -171v-354c0 -118 -26 -176 -152 -176h-191v60h159c73 0 77 19 77 116v354c0 81 -4 111 -77 111h-54c-70 0 -77 -30 -77 -111v-96c0 -97 4 -116 77 -116h78v-60h-110c-126 0 -152 58 -152 176z" />
    <glyph glyph-name="colon" unicode=":" horiz-adv-x="220" 
d="M162 98v-98h-105v98h105zM162 448v-98h-105v98h105z" />
    <glyph glyph-name="semicolon" unicode=";" horiz-adv-x="220" 
d="M162 448v-98h-105v98h105zM162 98l-41 -256h-64v256h105z" />
    <glyph glyph-name="less" unicode="&#x3c;" 
d="M441 580v-68l-330 -161l330 -164v-68l-391 195v70z" />
    <glyph glyph-name="equal" unicode="=" 
d="M441 280v-61h-391v61h391zM441 480v-61h-391v61h391z" />
    <glyph glyph-name="greater" unicode="&#x3e;" 
d="M50 512v68l391 -196v-70l-391 -195v68l330 164z" />
    <glyph glyph-name="question" unicode="?" horiz-adv-x="412" 
d="M396 512c0 -128 -33 -189 -130 -189h-47c-52 0 -77 -14 -77 -84c0 -18 2 -39 5 -64h-51c-13 39 -20 76 -20 106c0 61 29 100 108 100h43c46 0 69 29 69 133c0 96 -20 127 -77 127h-211v60h238c116 0 150 -51 150 -189zM171 98v-98h-105v98h105z" />
    <glyph glyph-name="at" unicode="@" horiz-adv-x="618" 
d="M516 173v249c0 85 -16 110 -59 110h-292c-41 0 -59 -25 -59 -110v-337c0 -71 18 -108 59 -108h398v-51h-423c-69 0 -102 51 -102 159v337c0 110 33 163 102 163h342c71 0 98 -53 98 -163v-243c0 -64 -20 -97 -98 -97h-192c-69 0 -102 51 -102 158v49
c0 110 33 162 102 162h135v-318h57c23 0 34 8 34 40zM254 240c0 -70 20 -107 61 -107h44v266h-44c-41 0 -61 -26 -61 -110v-49z" />
    <glyph glyph-name="A" unicode="A" horiz-adv-x="473" 
d="M356 0l-28 153h-187l-29 -153h-104l145 701h173l139 -701h-109zM234 641l-82 -429h166l-74 429h-10z" />
    <glyph glyph-name="B" unicode="B" horiz-adv-x="500" 
d="M476 191c0 -125 -50 -191 -166 -191h-260v701h259c113 0 156 -67 156 -184c0 -108 -33 -139 -75 -159c47 -16 86 -61 86 -167zM370 189c0 100 -19 139 -77 139h-95v59h95c58 0 69 34 69 121c0 98 -31 133 -77 133h-130v-581h130c50 0 85 33 85 129z" />
    <glyph glyph-name="C" unicode="C" horiz-adv-x="422" 
d="M147 515v-334c0 -81 23 -121 77 -121h174v-60h-206c-108 0 -150 68 -150 181v334c0 118 43 186 150 186h204v-60h-172c-54 0 -77 -29 -77 -126z" />
    <glyph glyph-name="D" unicode="D" horiz-adv-x="518" 
d="M476 515v-334c0 -113 -42 -181 -150 -181h-276v701h276c107 0 150 -68 150 -186zM371 181v334c0 97 -23 126 -77 126h-139v-581h139c54 0 77 40 77 121z" />
    <glyph glyph-name="E" unicode="E" horiz-adv-x="429" 
d="M405 60v-60h-355v701h355v-60h-250v-254h179v-59h-179v-268h250z" />
    <glyph glyph-name="F" unicode="F" horiz-adv-x="396" 
d="M391 701v-60h-235v-263h177v-59h-177v-319h-106v701h341z" />
    <glyph glyph-name="G" unicode="G" horiz-adv-x="508" 
d="M466 382v-382h-272c-108 0 -152 68 -152 181v334c0 118 45 186 152 186h204v-60h-172c-54 0 -79 -29 -79 -126v-334c0 -81 25 -121 79 -121h138v262h-156v60h258z" />
    <glyph glyph-name="H" unicode="H" horiz-adv-x="530" 
d="M480 701v-701h-105v327h-220v-327h-105v701h105v-314h220v314h105z" />
    <glyph glyph-name="I" unicode="I" horiz-adv-x="209" 
d="M157 701v-701h-105v701h105z" />
    <glyph glyph-name="J" unicode="J" horiz-adv-x="394" 
d="M347 701v-520c0 -113 -44 -181 -152 -181h-186v60h154c54 0 79 40 79 121v460h-78v60h183z" />
    <glyph glyph-name="K" unicode="K" horiz-adv-x="484" 
d="M251 402l227 -402h-116l-207 377v-377h-105v701h105v-307l206 307h91z" />
    <glyph glyph-name="L" unicode="L" horiz-adv-x="372" 
d="M361 60v-60h-311v701h105v-641h206z" />
    <glyph glyph-name="M" unicode="M" horiz-adv-x="656" 
d="M607 701v-701h-101v596l-126 -596h-103l-132 596v-596h-96v701h159l126 -590l123 590h150z" />
    <glyph glyph-name="N" unicode="N" horiz-adv-x="526" 
d="M477 701v-701h-91l-256 570v-570h-82v701h130l216 -499v499h83z" />
    <glyph glyph-name="O" unicode="O" horiz-adv-x="538" 
d="M42 515c0 118 43 186 150 186h154c107 0 150 -68 150 -186v-334c0 -113 -42 -181 -150 -181h-154c-108 0 -150 68 -150 181v334zM391 181v334c0 97 -23 126 -77 126h-90c-54 0 -77 -29 -77 -126v-334c0 -81 23 -121 77 -121h90c54 0 77 40 77 121z" />
    <glyph glyph-name="P" unicode="P" horiz-adv-x="486" 
d="M472 487c0 -177 -33 -207 -167 -207h-109v59h97c60 0 76 24 76 150s-16 152 -76 152h-138v-641h-105v701h255c134 0 167 -37 167 -214z" />
    <glyph glyph-name="Q" unicode="Q" horiz-adv-x="545" 
d="M42 515c0 118 44 186 151 186h159c107 0 151 -68 151 -186v-334c0 -113 -43 -181 -151 -181l35 -94h-101l-35 94h-58c-108 0 -151 68 -151 181v334zM397 181v334c0 97 -23 126 -77 126h-95c-54 0 -77 -29 -77 -126v-334c0 -81 23 -121 77 -121h95c54 0 77 40 77 121z" />
    <glyph glyph-name="R" unicode="R" horiz-adv-x="516" 
d="M471 513c0 -134 -44 -165 -90 -178c46 -16 91 -50 91 -174v-161h-105v161c0 111 -27 144 -82 144h-87v59h89c51 0 78 33 78 139s-27 138 -78 138h-132v-641h-105v701h258c118 0 163 -54 163 -188z" />
    <glyph glyph-name="S" unicode="S" horiz-adv-x="455" 
d="M428 211c0 -144 -45 -211 -163 -211h-224v60h204c57 0 86 22 86 136c0 100 -16 118 -96 118h-76c-101 0 -136 49 -136 192c0 123 41 195 154 195h195v-60h-170c-55 0 -82 -25 -82 -121c0 -93 11 -115 82 -115h71c108 0 155 -34 155 -194z" />
    <glyph glyph-name="T" unicode="T" horiz-adv-x="409" 
d="M401 701v-60h-144v-641h-105v641h-144v60h393z" />
    <glyph glyph-name="U" unicode="U" horiz-adv-x="542" 
d="M45 181v520h108v-520c0 -93 23 -121 77 -121h86c55 0 77 28 77 121v520h104v-520c0 -113 -44 -181 -152 -181h-148c-114 0 -152 68 -152 181z" />
    <glyph glyph-name="V" unicode="V" horiz-adv-x="461" 
d="M231 60l117 641h105l-143 -701h-165l-137 701h110l107 -641h6z" />
    <glyph glyph-name="W" unicode="W" horiz-adv-x="742" 
d="M544 60l85 641h104l-106 -701h-172l-79 641h-8l-81 -641h-175l-103 701h114l77 -641h6l81 641h170l82 -641h5z" />
    <glyph glyph-name="X" unicode="X" horiz-adv-x="452" 
d="M23 701h114l103 -247l103 247h78l-142 -324l158 -377h-114l-115 297l-115 -297h-78l153 374z" />
    <glyph glyph-name="Y" unicode="Y" horiz-adv-x="419" 
d="M349 701h66l-158 -355v-346h-105v348l-148 353h112l111 -275z" />
    <glyph glyph-name="Z" unicode="Z" horiz-adv-x="434" 
d="M405 60v-60h-372v65l258 576h-251v60h363v-51l-259 -590h261z" />
    <glyph glyph-name="bracketleft" unicode="[" horiz-adv-x="359" 
d="M168 770v-931h171v-59h-259v1049h259v-59h-171z" />
    <glyph glyph-name="backslash" unicode="\" horiz-adv-x="305" 
d="M0 701h81l259 -811h-83z" />
    <glyph glyph-name="bracketright" unicode="]" horiz-adv-x="359" 
d="M191 -161v931h-171v59h259v-1049h-259v59h171z" />
    <glyph glyph-name="asciicircum" unicode="^" horiz-adv-x="381" 
d="M155 701h70l126 -251h-68l-91 190l-94 -190h-68z" />
    <glyph glyph-name="underscore" unicode="_" horiz-adv-x="387" 
d="M390 -68v-60h-390v60h390z" />
    <glyph glyph-name="grave" unicode="`" horiz-adv-x="398" 
d="M50 762h143l155 -151h-91z" />
    <glyph glyph-name="a" unicode="a" horiz-adv-x="481" 
d="M184 333h79v-58h-43c-71 0 -85 -19 -85 -74v-64c0 -60 14 -77 85 -77h113v329c0 89 -14 106 -85 106h-144v60h180c120 0 151 -46 151 -170v-385h-251c-120 0 -151 46 -151 131v71c0 85 31 131 151 131z" />
    <glyph glyph-name="b" unicode="b" horiz-adv-x="513" 
d="M284 495h-77v60h113c120 0 151 -46 151 -170v-215c0 -124 -31 -170 -151 -170h-270v721h102v-661h132c71 0 85 17 85 106v223c0 89 -14 106 -85 106z" />
    <glyph glyph-name="c" unicode="c" horiz-adv-x="413" 
d="M144 389v-223c0 -89 14 -106 85 -106h158v-60h-194c-120 0 -151 46 -151 170v215c0 124 31 170 151 170h194v-60h-158c-71 0 -85 -17 -85 -106z" />
    <glyph glyph-name="d" unicode="d" horiz-adv-x="513" 
d="M306 495h-77c-71 0 -85 -17 -85 -106v-223c0 -89 14 -106 85 -106h132v661h102v-721h-270c-120 0 -151 46 -151 170v215c0 124 31 170 151 170h113v-60z" />
    <glyph glyph-name="e" unicode="e" horiz-adv-x="484" 
d="M307 232h-93v58h57c71 0 85 19 85 74v54c0 60 -14 77 -85 77h-42c-71 0 -85 -17 -85 -106v-223c0 -89 14 -106 85 -106h189v-60h-225c-120 0 -151 46 -151 170v215c0 124 31 170 151 170h114c120 0 151 -46 151 -131v-61c0 -85 -31 -131 -151 -131z" />
    <glyph glyph-name="f" unicode="f" horiz-adv-x="272" 
d="M264 555v-60h-112v-495h-102v578c0 107 36 143 136 143h78v-58h-60c-37 0 -52 -14 -52 -60v-48h112z" />
    <glyph glyph-name="g" unicode="g" horiz-adv-x="513" 
d="M179 -162h97c71 0 85 19 85 108v549h-132c-71 0 -85 -17 -85 -106v-223c0 -89 14 -106 85 -106h77v-60h-113c-120 0 -151 46 -151 170v215c0 124 31 170 151 170h270v-605c0 -124 -31 -170 -151 -170h-133v58z" />
    <glyph glyph-name="h" unicode="h" horiz-adv-x="521" 
d="M288 495h-136v-495h-102v721h102v-166h172c120 0 151 -46 151 -170v-385h-102v389c0 89 -14 106 -85 106z" />
    <glyph glyph-name="i" unicode="i" horiz-adv-x="206" 
d="M154 555v-555h-102v555h102zM154 722v-96h-102v96h102z" />
    <glyph glyph-name="j" unicode="j" horiz-adv-x="220" 
d="M-46 -162h29c71 0 85 19 85 108v609h102v-605c0 -124 -31 -170 -151 -170h-65v58zM170 722v-96h-102v96h102z" />
    <glyph glyph-name="k" unicode="k" horiz-adv-x="454" 
d="M245 353l201 -353h-121l-173 309v-309h-102v721h102v-383l192 217h78z" />
    <glyph glyph-name="l" unicode="l" horiz-adv-x="202" 
d="M152 721v-721h-102v721h102z" />
    <glyph glyph-name="m" unicode="m" horiz-adv-x="774" 
d="M541 495h-101v-495h-102v495h-186v-495h-102v555h527c120 0 151 -46 151 -170v-385h-102v389c0 89 -14 106 -85 106z" />
    <glyph glyph-name="n" unicode="n" horiz-adv-x="521" 
d="M288 495h-136v-495h-102v555h274c120 0 151 -46 151 -170v-385h-102v389c0 89 -14 106 -85 106z" />
    <glyph glyph-name="o" unicode="o" horiz-adv-x="520" 
d="M193 555h134c120 0 151 -46 151 -170v-215c0 -124 -31 -170 -151 -170h-134c-120 0 -151 46 -151 170v215c0 124 31 170 151 170zM144 389v-223c0 -89 14 -106 85 -106h62c71 0 85 17 85 106v223c0 89 -14 106 -85 106h-62c-71 0 -85 -17 -85 -106z" />
    <glyph glyph-name="p" unicode="p" horiz-adv-x="513" 
d="M207 60h77c71 0 85 17 85 106v223c0 89 -14 106 -85 106h-132v-715h-102v775h270c120 0 151 -46 151 -170v-215c0 -124 -31 -170 -151 -170h-113v60z" />
    <glyph glyph-name="q" unicode="q" horiz-adv-x="513" 
d="M229 60h77v-60h-113c-120 0 -151 46 -151 170v215c0 124 31 170 151 170h270v-775h-102v715h-132c-71 0 -85 -17 -85 -106v-223c0 -89 14 -106 85 -106z" />
    <glyph glyph-name="r" unicode="r" horiz-adv-x="323" 
d="M46 385c0 124 31 170 151 170h104v-60h-68c-71 0 -85 -17 -85 -106v-389h-102v385z" />
    <glyph glyph-name="s" unicode="s" horiz-adv-x="455" 
d="M430 167c0 -114 -44 -167 -161 -167h-221v60h201c57 0 88 5 88 95c0 78 -15 89 -98 89h-75c-99 0 -134 43 -134 157c0 97 40 154 152 154h193v-60h-168c-55 0 -84 -7 -84 -83c0 -74 14 -87 84 -87h70c114 0 153 -34 153 -158z" />
    <glyph glyph-name="t" unicode="t" horiz-adv-x="299" 
d="M287 555v-60h-139v-354c0 -64 14 -81 66 -81h45v-60h-86c-96 0 -127 58 -127 134v567h102v-146h139z" />
    <glyph glyph-name="u" unicode="u" horiz-adv-x="516" 
d="M233 60h131v495h102v-555h-269c-120 0 -151 46 -151 170v385h102v-389c0 -89 14 -106 85 -106z" />
    <glyph glyph-name="v" unicode="v" horiz-adv-x="477" 
d="M365 555h102l-159 -555h-145l-153 555h111l118 -494z" />
    <glyph glyph-name="w" unicode="w" horiz-adv-x="747" 
d="M546 48l85 507h104l-106 -555h-172l-79 507h-7l-81 -507h-175l-103 555h114l77 -507h6l81 507h169l82 -507h5z" />
    <glyph glyph-name="x" unicode="x" horiz-adv-x="461" 
d="M26 555h120l108 -201l112 201h79l-150 -260l158 -295h-120l-115 234l-131 -234h-78l167 294z" />
    <glyph glyph-name="y" unicode="y" horiz-adv-x="466" 
d="M222 -220h-98l62 208l-176 567h105l119 -451l126 451h96z" />
    <glyph glyph-name="z" unicode="z" horiz-adv-x="424" 
d="M395 60v-60h-362v61l250 434h-245v60h352v-43l-247 -452h252z" />
    <glyph glyph-name="braceleft" unicode="{" horiz-adv-x="363" 
d="M210 183v-223c0 -74 19 -121 90 -121h43v-59h-55c-98 0 -166 55 -166 181v223c0 74 -20 91 -50 91h-29v59h29c30 0 50 17 50 91v223c0 126 68 181 166 181h55v-59h-43c-71 0 -90 -47 -90 -121v-223c0 -76 -27 -110 -72 -122c45 -15 72 -38 72 -121z" />
    <glyph glyph-name="bar" unicode="|" horiz-adv-x="264" 
d="M174 808v-1016h-85v1016h85z" />
    <glyph glyph-name="braceright" unicode="}" horiz-adv-x="364" 
d="M153 -40v223c0 83 27 106 72 121c-45 12 -72 46 -72 122v223c0 74 -19 121 -90 121h-43v59h55c98 0 166 -55 166 -181v-223c0 -74 20 -91 50 -91h29v-59h-29c-30 0 -50 -17 -50 -91v-223c0 -126 -68 -181 -166 -181h-55v59h43c71 0 90 47 90 121z" />
    <glyph glyph-name="asciitilde" unicode="~" 
d="M230 321c-28 10 -56 19 -89 19c-37 0 -61 -7 -91 -31v66c27 23 61 31 98 31c38 0 71 -14 113 -29c28 -10 56 -19 89 -19c37 0 61 7 91 31v-66c-27 -23 -61 -31 -98 -31c-38 0 -71 14 -113 29z" />
    <glyph glyph-name="nbspace" unicode="&#xa0;" horiz-adv-x="236" 
 />
    <glyph glyph-name="exclamdown" unicode="&#xa1;" horiz-adv-x="214" 
d="M54 0v507h105v-507h-105zM54 605v98h105v-98h-105z" />
    <glyph glyph-name="cent" unicode="&#xa2;" horiz-adv-x="421" 
d="M152 463v-223c0 -89 14 -108 85 -108h158v-58h-94v-74h-66v74h-34c-120 0 -151 46 -151 170v215c0 124 31 170 151 170h34v72h66v-72h94v-58h-158c-71 0 -85 -19 -85 -108z" />
    <glyph glyph-name="sterling" unicode="&#xa3;" horiz-adv-x="440" 
d="M331 382v-58h-144v-264h231v-60h-397v60h61v264h-62v58h62v138c0 113 44 181 152 181h156v-60h-124c-54 0 -79 -40 -79 -121v-138h144z" />
    <glyph glyph-name="yen" unicode="&#xa5;" horiz-adv-x="438" 
d="M420 229v-61h-149v-168h-105v168h-148v61h148v99h-148v61h148v19l-123 293h111l87 -215l95 215h66l-131 -295v-17h149v-61h-149v-99h149z" />
    <glyph glyph-name="brokenbar" unicode="&#xa6;" horiz-adv-x="264" 
d="M174 808v-416h-85v416h85zM174 208v-416h-85v416h85z" />
    <glyph glyph-name="section" unicode="&#xa7;" horiz-adv-x="487" 
d="M440 62c0 -114 -44 -167 -161 -167h-221v60h201c57 0 88 5 88 95c0 74 -14 94 -86 96h-87c-99 0 -134 36 -134 150c0 61 19 101 50 124c-26 24 -41 63 -41 127c0 97 40 154 152 154h193v-60h-168c-55 0 -84 -7 -84 -83c0 -74 14 -108 84 -108h70c114 0 153 -13 153 -137
c0 -66 -20 -108 -50 -133c25 -20 41 -55 41 -118zM356 301c0 78 -15 89 -98 89h-53c-48 0 -72 -13 -72 -83c0 -71 12 -101 74 -101h61c57 0 88 5 88 95z" />
    <glyph glyph-name="dieresis" unicode="&#xa8;" horiz-adv-x="432" 
d="M382 722v-96h-102v96h102zM152 722v-96h-102v96h102z" />
    <glyph glyph-name="ordfeminine" unicode="&#xaa;" horiz-adv-x="330" 
d="M133 486h45v-39h-20c-35 0 -41 -7 -41 -34v-37c0 -30 6 -36 41 -36h48v175c0 45 -6 50 -41 50h-77v40h101c68 0 86 -25 86 -93v-212h-142c-67 0 -85 25 -85 72v42c0 47 18 72 85 72z" />
    <glyph glyph-name="guillemotleft" unicode="&#xab;" horiz-adv-x="380" 
d="M169 390l-97 -70l97 -72v-89l-149 114v89l149 121v-93zM359 390l-97 -70l97 -72v-89l-149 114v89l149 121v-93z" />
    <glyph glyph-name="logicalnot" unicode="&#xac;" horiz-adv-x="541" 
d="M491 58h-61v261h-380v61h441v-322z" />
    <glyph glyph-name="macron" unicode="&#xaf;" horiz-adv-x="432" 
d="M382 705v-60h-332v60h332z" />
    <glyph glyph-name="degree" unicode="&#xb0;" horiz-adv-x="386" 
d="M230 393h-75c-94 0 -119 36 -119 140v28c0 102 25 140 119 140h75c94 0 120 -38 120 -140v-28c0 -104 -26 -140 -120 -140zM118 565v-36c0 -74 10 -91 65 -91h17c58 0 68 17 68 91v36c0 72 -10 89 -68 89h-17c-55 0 -65 -17 -65 -89z" />
    <glyph glyph-name="plusminus" unicode="&#xb1;" 
d="M276 153h-61v166h-165v61h165v164h61v-164h165v-61h-165v-166zM441 49h-391v61h391v-61z" />
    <glyph glyph-name="twosuperior" unicode="&#xb2;" horiz-adv-x="274" 
d="M143 522c-40 0 -46 -13 -46 -65v-60h138v-36h-201v99c0 74 17 100 90 100h21c34 0 37 18 37 58c0 46 -12 57 -35 57h-98v36h114c58 0 79 -23 79 -90c0 -82 -18 -99 -70 -99h-29z" />
    <glyph glyph-name="threesuperior" unicode="&#xb3;" horiz-adv-x="249" 
d="M151 460c0 56 -8 62 -32 62h-45v35h45c27 0 28 16 28 58c0 54 -13 60 -31 60h-86v36h101c58 0 80 -33 80 -92c0 -53 -15 -67 -34 -79c23 -10 39 -32 39 -84c0 -62 -25 -95 -85 -95h-102v36h87c19 0 35 13 35 63z" />
    <glyph glyph-name="acute" unicode="&#xb4;" horiz-adv-x="398" 
d="M205 762h143l-207 -151h-91z" />
    <glyph glyph-name="uni00B5" unicode="&#xb5;" horiz-adv-x="517" 
d="M320 0h-168v-220h-102v775h102v-495h132c71 0 85 17 85 106v389h102v-385c0 -124 -31 -170 -151 -170z" />
    <glyph glyph-name="paragraph" unicode="&#xb6;" horiz-adv-x="532" 
d="M283 -80h-87v464h-49c-103 0 -129 39 -129 145v48c0 106 26 145 129 145h335v-802h-87v739h-112v-739z" />
    <glyph glyph-name="periodcentered" unicode="&#xb7;" horiz-adv-x="205" 
d="M155 388v-98h-105v98h105z" />
    <glyph glyph-name="cedilla" unicode="&#xb8;" horiz-adv-x="199" 
d="M149 -38l-37 -182h-62v182h99z" />
    <glyph glyph-name="onesuperior" unicode="&#xb9;" horiz-adv-x="148" 
d="M108 711v-350h-65v314h-24v36h89z" />
    <glyph glyph-name="ordmasculine" unicode="&#xba;" horiz-adv-x="352" 
d="M138 605h76c67 0 85 -25 85 -93v-118c0 -69 -18 -94 -85 -94h-76c-68 0 -85 25 -85 94v118c0 68 17 93 85 93zM189 565h-26c-35 0 -41 -5 -41 -50v-124c0 -45 6 -51 41 -51h26c35 0 41 6 41 51v124c0 45 -6 50 -41 50z" />
    <glyph glyph-name="guillemotright" unicode="&#xbb;" horiz-adv-x="380" 
d="M117 320l-97 70v93l149 -121v-89l-149 -114v89zM307 320l-97 70v93l149 -121v-89l-149 -114v89z" />
    <glyph glyph-name="onequarter" unicode="&#xbc;" horiz-adv-x="698" 
d="M219 711v-350h-65v314h-24v36h89zM621 701l-494 -701h-65l494 701h65zM521 340h71v-253h32v-34h-32v-63h-57v63h-136v36zM453 87h82v180z" />
    <glyph glyph-name="onehalf" unicode="&#xbd;" horiz-adv-x="698" 
d="M229 711v-350h-65v314h-24v36h89zM621 701l-494 -701h-65l494 701h65zM551 151c-40 0 -46 -13 -46 -65v-60h138v-36h-201v99c0 74 17 100 90 100h21c34 0 37 18 37 58c0 46 -12 57 -35 57h-98v36h114c58 0 79 -23 79 -90c0 -82 -18 -99 -70 -99h-29z" />
    <glyph glyph-name="threequarters" unicode="&#xbe;" horiz-adv-x="698" 
d="M231 460c0 56 -8 62 -32 62h-45v35h45c27 0 28 16 28 58c0 54 -13 60 -31 60h-86v36h101c58 0 80 -33 80 -92c0 -53 -15 -67 -34 -79c23 -10 39 -32 39 -84c0 -62 -25 -95 -85 -95h-102v36h87c19 0 35 13 35 63zM621 701l-494 -701h-65l494 701h65zM491 340h71v-253h32
v-34h-32v-63h-57v63h-136v36zM423 87h82v180z" />
    <glyph glyph-name="questiondown" unicode="&#xbf;" horiz-adv-x="412" 
d="M8 189c0 128 33 189 130 189h47c52 0 77 14 77 84c0 18 -2 39 -5 64h51c13 -39 20 -76 20 -106c0 -61 -29 -100 -108 -100h-43c-46 0 -69 -29 -69 -133c0 -96 20 -127 77 -127h211v-60h-238c-116 0 -150 51 -150 189zM233 603v98h105v-98h-105z" />
    <glyph glyph-name="Agrave" unicode="&#xc0;" horiz-adv-x="473" 
d="M356 0l-28 153h-187l-29 -153h-104l145 701h173l139 -701h-109zM234 641l-82 -429h166l-74 429h-10zM57 908h143l155 -151h-91z" />
    <glyph glyph-name="Aacute" unicode="&#xc1;" horiz-adv-x="473" 
d="M356 0l-28 153h-187l-29 -153h-104l145 701h173l139 -701h-109zM234 641l-82 -429h166l-74 429h-10zM272 908h143l-207 -151h-91z" />
    <glyph glyph-name="Acircumflex" unicode="&#xc2;" horiz-adv-x="473" 
d="M356 0l-28 153h-187l-29 -153h-104l145 701h173l139 -701h-109zM234 641l-82 -429h166l-74 429h-10zM201 908h72l154 -151h-76l-114 87l-114 -87h-76z" />
    <glyph glyph-name="Atilde" unicode="&#xc3;" horiz-adv-x="473" 
d="M356 0l-28 153h-187l-29 -153h-104l145 701h173l139 -701h-109zM234 641l-82 -429h166l-74 429h-10zM225 796c-21 7 -42 14 -67 14c-28 0 -46 -5 -68 -23v59c20 17 46 23 73 23c29 0 54 -10 85 -22c21 -7 42 -14 67 -14c28 0 46 5 68 23v-59c-20 -17 -46 -23 -73 -23
c-29 0 -54 10 -85 22z" />
    <glyph glyph-name="Adieresis" unicode="&#xc4;" horiz-adv-x="473" 
d="M356 0l-28 153h-187l-29 -153h-104l145 701h173l139 -701h-109zM234 641l-82 -429h166l-74 429h-10zM402 868v-96h-102v96h102zM172 868v-96h-102v96h102z" />
    <glyph glyph-name="Aring" unicode="&#xc5;" horiz-adv-x="473" 
d="M356 0l-28 153h-187l-29 -153h-104l145 701h173l139 -701h-109zM234 641l-82 -429h166l-74 429h-10zM264 728h-55c-70 0 -88 26 -88 102v7c0 75 18 102 88 102h55c69 0 88 -27 88 -102v-7c0 -76 -19 -102 -88 -102zM181 839v-11c0 -43 7 -53 48 -53h13c43 0 50 10 50 53
v11c0 42 -7 52 -50 52h-13c-41 0 -48 -10 -48 -52z" />
    <glyph glyph-name="AE" unicode="&#xc6;" horiz-adv-x="637" 
d="M613 60v-60h-325v153h-145l-29 -153h-106l147 701h458v-60h-220v-254h149v-59h-149v-268h220zM236 641l-82 -429h134v429h-52z" />
    <glyph glyph-name="Ccedilla" unicode="&#xc7;" horiz-adv-x="422" 
d="M147 515v-334c0 -81 23 -121 77 -121h174v-60h-206c-108 0 -150 68 -150 181v334c0 118 43 186 150 186h204v-60h-172c-54 0 -77 -29 -77 -126zM303 -38l-37 -182h-62v182h99z" />
    <glyph glyph-name="Egrave" unicode="&#xc8;" horiz-adv-x="429" 
d="M405 60v-60h-355v701h355v-60h-250v-254h179v-59h-179v-268h250zM46 908h143l155 -151h-91z" />
    <glyph glyph-name="Eacute" unicode="&#xc9;" horiz-adv-x="429" 
d="M405 60v-60h-355v701h355v-60h-250v-254h179v-59h-179v-268h250zM260 908h143l-207 -151h-91z" />
    <glyph glyph-name="Ecircumflex" unicode="&#xca;" horiz-adv-x="429" 
d="M405 60v-60h-355v701h355v-60h-250v-254h179v-59h-179v-268h250zM189 908h72l154 -151h-76l-114 87l-114 -87h-76z" />
    <glyph glyph-name="Edieresis" unicode="&#xcb;" horiz-adv-x="429" 
d="M405 60v-60h-355v701h355v-60h-250v-254h179v-59h-179v-268h250zM391 868v-96h-102v96h102zM161 868v-96h-102v96h102z" />
    <glyph glyph-name="Igrave" unicode="&#xcc;" horiz-adv-x="209" 
d="M157 701v-701h-105v701h105zM-74 908h143l155 -151h-91z" />
    <glyph glyph-name="Iacute" unicode="&#xcd;" horiz-adv-x="209" 
d="M157 701v-701h-105v701h105zM141 908h143l-207 -151h-91z" />
    <glyph glyph-name="Icircumflex" unicode="&#xce;" horiz-adv-x="209" 
d="M157 701v-701h-105v701h105zM69 908h72l154 -151h-76l-114 87l-114 -87h-76z" />
    <glyph glyph-name="Idieresis" unicode="&#xcf;" horiz-adv-x="209" 
d="M157 701v-701h-105v701h105zM271 868v-96h-102v96h102zM41 868v-96h-102v96h102z" />
    <glyph glyph-name="Eth" unicode="&#xd0;" horiz-adv-x="524" 
d="M482 515v-334c0 -113 -42 -181 -150 -181h-276v328h-45v59h45v314h276c107 0 150 -68 150 -186zM284 328h-123v-268h139c54 0 77 40 77 121v334c0 97 -23 126 -77 126h-139v-254h123v-59z" />
    <glyph glyph-name="Ntilde" unicode="&#xd1;" horiz-adv-x="526" 
d="M477 701v-701h-91l-256 570v-570h-82v701h130l216 -499v499h83zM251 796c-21 7 -42 14 -67 14c-28 0 -46 -5 -68 -23v59c20 17 46 23 73 23c29 0 54 -10 85 -22c21 -7 42 -14 67 -14c28 0 46 5 68 23v-59c-20 -17 -46 -23 -73 -23c-29 0 -54 10 -85 22z" />
    <glyph glyph-name="Ograve" unicode="&#xd2;" horiz-adv-x="538" 
d="M42 515c0 118 43 186 150 186h154c107 0 150 -68 150 -186v-334c0 -113 -42 -181 -150 -181h-154c-108 0 -150 68 -150 181v334zM391 181v334c0 97 -23 126 -77 126h-90c-54 0 -77 -29 -77 -126v-334c0 -81 23 -121 77 -121h90c54 0 77 40 77 121zM90 908h143l155 -151
h-91z" />
    <glyph glyph-name="Oacute" unicode="&#xd3;" horiz-adv-x="538" 
d="M42 515c0 118 43 186 150 186h154c107 0 150 -68 150 -186v-334c0 -113 -42 -181 -150 -181h-154c-108 0 -150 68 -150 181v334zM391 181v334c0 97 -23 126 -77 126h-90c-54 0 -77 -29 -77 -126v-334c0 -81 23 -121 77 -121h90c54 0 77 40 77 121zM305 908h143l-207 -151
h-91z" />
    <glyph glyph-name="Ocircumflex" unicode="&#xd4;" horiz-adv-x="538" 
d="M42 515c0 118 43 186 150 186h154c107 0 150 -68 150 -186v-334c0 -113 -42 -181 -150 -181h-154c-108 0 -150 68 -150 181v334zM391 181v334c0 97 -23 126 -77 126h-90c-54 0 -77 -29 -77 -126v-334c0 -81 23 -121 77 -121h90c54 0 77 40 77 121zM233 908h72l154 -151
h-76l-114 87l-114 -87h-76z" />
    <glyph glyph-name="Otilde" unicode="&#xd5;" horiz-adv-x="538" 
d="M42 515c0 118 43 186 150 186h154c107 0 150 -68 150 -186v-334c0 -113 -42 -181 -150 -181h-154c-108 0 -150 68 -150 181v334zM391 181v334c0 97 -23 126 -77 126h-90c-54 0 -77 -29 -77 -126v-334c0 -81 23 -121 77 -121h90c54 0 77 40 77 121zM257 796
c-21 7 -42 14 -67 14c-28 0 -46 -5 -68 -23v59c20 17 46 23 73 23c29 0 54 -10 85 -22c21 -7 42 -14 67 -14c28 0 46 5 68 23v-59c-20 -17 -46 -23 -73 -23c-29 0 -54 10 -85 22z" />
    <glyph glyph-name="Odieresis" unicode="&#xd6;" horiz-adv-x="538" 
d="M42 515c0 118 43 186 150 186h154c107 0 150 -68 150 -186v-334c0 -113 -42 -181 -150 -181h-154c-108 0 -150 68 -150 181v334zM391 181v334c0 97 -23 126 -77 126h-90c-54 0 -77 -29 -77 -126v-334c0 -81 23 -121 77 -121h90c54 0 77 40 77 121zM435 868v-96h-102v96
h102zM205 868v-96h-102v96h102z" />
    <glyph glyph-name="multiply" unicode="&#xd7;" 
d="M405 232l-43 -43l-118 117l-116 -116l-44 43l117 116l-116 116l43 44l116 -116l117 116l43 -43l-117 -117z" />
    <glyph glyph-name="Oslash" unicode="&#xd8;" horiz-adv-x="538" 
d="M67 -100l45 117c-49 27 -70 84 -70 164v334c0 118 43 186 150 186h154c11 0 21 -1 31 -2l40 102h67l-49 -124c42 -30 61 -86 61 -162v-334c0 -113 -42 -181 -150 -181h-173l-39 -100h-67zM147 181c0 -23 2 -43 6 -60l199 512c-11 6 -23 8 -38 8h-90
c-54 0 -77 -29 -77 -126v-334zM391 181v334c0 15 -1 29 -2 42l-192 -493c8 -3 17 -4 27 -4h90c54 0 77 40 77 121z" />
    <glyph glyph-name="Ugrave" unicode="&#xd9;" horiz-adv-x="542" 
d="M45 181v520h108v-520c0 -93 23 -121 77 -121h86c55 0 77 28 77 121v520h104v-520c0 -113 -44 -181 -152 -181h-148c-114 0 -152 68 -152 181zM92 908h143l155 -151h-91z" />
    <glyph glyph-name="Uacute" unicode="&#xda;" horiz-adv-x="542" 
d="M45 181v520h108v-520c0 -93 23 -121 77 -121h86c55 0 77 28 77 121v520h104v-520c0 -113 -44 -181 -152 -181h-148c-114 0 -152 68 -152 181zM307 908h143l-207 -151h-91z" />
    <glyph glyph-name="Ucircumflex" unicode="&#xdb;" horiz-adv-x="542" 
d="M45 181v520h108v-520c0 -93 23 -121 77 -121h86c55 0 77 28 77 121v520h104v-520c0 -113 -44 -181 -152 -181h-148c-114 0 -152 68 -152 181zM235 908h72l154 -151h-76l-114 87l-114 -87h-76z" />
    <glyph glyph-name="Udieresis" unicode="&#xdc;" horiz-adv-x="542" 
d="M45 181v520h108v-520c0 -93 23 -121 77 -121h86c55 0 77 28 77 121v520h104v-520c0 -113 -44 -181 -152 -181h-148c-114 0 -152 68 -152 181zM437 868v-96h-102v96h102zM207 868v-96h-102v96h102z" />
    <glyph glyph-name="Yacute" unicode="&#xdd;" horiz-adv-x="419" 
d="M349 701h66l-158 -355v-346h-105v348l-148 353h112l111 -275zM245 908h143l-207 -151h-91z" />
    <glyph glyph-name="Thorn" unicode="&#xde;" horiz-adv-x="493" 
d="M479 357c0 -177 -39 -207 -173 -207h-109v59h97c60 0 76 24 76 150s-16 152 -76 152h-138v-511h-106v701h106v-130h150c134 0 173 -37 173 -214z" />
    <glyph glyph-name="germandbls" unicode="&#xdf;" horiz-adv-x="631" 
d="M423 307h-23c-106 0 -128 30 -128 131v165c0 46 -15 60 -52 60h-16c-37 0 -52 -14 -52 -60v-603h-102v578c0 107 36 143 136 143h52c100 0 136 -36 136 -143v-134c0 -60 14 -79 63 -79h16c105 0 136 -46 136 -120v-121c0 -86 -31 -124 -151 -124h-185v60h176
c42 0 58 17 58 61v124c0 43 -14 62 -64 62z" />
    <glyph glyph-name="agrave" unicode="&#xe0;" horiz-adv-x="481" 
d="M184 333h79v-58h-43c-71 0 -85 -19 -85 -74v-64c0 -60 14 -77 85 -77h113v329c0 89 -14 106 -85 106h-144v60h180c120 0 151 -46 151 -170v-385h-251c-120 0 -151 46 -151 131v71c0 85 31 131 151 131zM71 762h143l155 -151h-91z" />
    <glyph glyph-name="aacute" unicode="&#xe1;" horiz-adv-x="481" 
d="M184 333h79v-58h-43c-71 0 -85 -19 -85 -74v-64c0 -60 14 -77 85 -77h113v329c0 89 -14 106 -85 106h-144v60h180c120 0 151 -46 151 -170v-385h-251c-120 0 -151 46 -151 131v71c0 85 31 131 151 131zM286 762h143l-207 -151h-91z" />
    <glyph glyph-name="acircumflex" unicode="&#xe2;" horiz-adv-x="481" 
d="M184 333h79v-58h-43c-71 0 -85 -19 -85 -74v-64c0 -60 14 -77 85 -77h113v329c0 89 -14 106 -85 106h-144v60h180c120 0 151 -46 151 -170v-385h-251c-120 0 -151 46 -151 131v71c0 85 31 131 151 131zM224 762h72l154 -151h-76l-114 87l-114 -87h-76z" />
    <glyph glyph-name="atilde" unicode="&#xe3;" horiz-adv-x="481" 
d="M184 333h79v-58h-43c-71 0 -85 -19 -85 -74v-64c0 -60 14 -77 85 -77h113v329c0 89 -14 106 -85 106h-144v60h180c120 0 151 -46 151 -170v-385h-251c-120 0 -151 46 -151 131v71c0 85 31 131 151 131zM245 650c-21 7 -42 14 -67 14c-28 0 -46 -5 -68 -23v59
c20 17 46 23 73 23c29 0 54 -10 85 -22c21 -7 42 -14 67 -14c28 0 46 5 68 23v-59c-20 -17 -46 -23 -73 -23c-29 0 -54 10 -85 22z" />
    <glyph glyph-name="adieresis" unicode="&#xe4;" horiz-adv-x="481" 
d="M184 333h79v-58h-43c-71 0 -85 -19 -85 -74v-64c0 -60 14 -77 85 -77h113v329c0 89 -14 106 -85 106h-144v60h180c120 0 151 -46 151 -170v-385h-251c-120 0 -151 46 -151 131v71c0 85 31 131 151 131zM421 722v-96h-102v96h102zM191 722v-96h-102v96h102z" />
    <glyph glyph-name="aring" unicode="&#xe5;" horiz-adv-x="481" 
d="M184 333h79v-58h-43c-71 0 -85 -19 -85 -74v-64c0 -60 14 -77 85 -77h113v329c0 89 -14 106 -85 106h-144v60h180c120 0 151 -46 151 -170v-385h-251c-120 0 -151 46 -151 131v71c0 85 31 131 151 131zM282 582h-55c-70 0 -88 26 -88 102v7c0 75 18 102 88 102h55
c69 0 88 -27 88 -102v-7c0 -76 -19 -102 -88 -102zM199 693v-11c0 -43 7 -53 48 -53h13c43 0 50 10 50 53v11c0 42 -7 52 -50 52h-13c-41 0 -48 -10 -48 -52z" />
    <glyph glyph-name="ae" unicode="&#xe6;" horiz-adv-x="778" 
d="M601 232h-93v58h57c71 0 85 19 85 74v54c0 60 -14 77 -85 77h-42c-71 0 -85 -17 -85 -106v-329h274v-60h-519c-120 0 -151 46 -151 131v71c0 85 31 131 151 131h73v-58h-37c-71 0 -85 -19 -85 -74v-64c0 -60 14 -77 85 -77h107v329c0 89 -14 106 -85 106h-138v60h174
c60 0 87 -32 100 -58c10 26 35 58 100 58h114c120 0 151 -46 151 -131v-61c0 -85 -31 -131 -151 -131z" />
    <glyph glyph-name="ccedilla" unicode="&#xe7;" horiz-adv-x="413" 
d="M144 389v-223c0 -89 14 -106 85 -106h158v-60h-194c-120 0 -151 46 -151 170v215c0 124 31 170 151 170h194v-60h-158c-71 0 -85 -17 -85 -106zM282 -38l-37 -182h-62v182h99z" />
    <glyph glyph-name="egrave" unicode="&#xe8;" horiz-adv-x="484" 
d="M307 232h-93v58h57c71 0 85 19 85 74v54c0 60 -14 77 -85 77h-42c-71 0 -85 -17 -85 -106v-223c0 -89 14 -106 85 -106h189v-60h-225c-120 0 -151 46 -151 170v215c0 124 31 170 151 170h114c120 0 151 -46 151 -131v-61c0 -85 -31 -131 -151 -131zM63 762h143l155 -151
h-91z" />
    <glyph glyph-name="eacute" unicode="&#xe9;" horiz-adv-x="484" 
d="M307 232h-93v58h57c71 0 85 19 85 74v54c0 60 -14 77 -85 77h-42c-71 0 -85 -17 -85 -106v-223c0 -89 14 -106 85 -106h189v-60h-225c-120 0 -151 46 -151 170v215c0 124 31 170 151 170h114c120 0 151 -46 151 -131v-61c0 -85 -31 -131 -151 -131zM278 762h143
l-207 -151h-91z" />
    <glyph glyph-name="ecircumflex" unicode="&#xea;" horiz-adv-x="484" 
d="M307 232h-93v58h57c71 0 85 19 85 74v54c0 60 -14 77 -85 77h-42c-71 0 -85 -17 -85 -106v-223c0 -89 14 -106 85 -106h189v-60h-225c-120 0 -151 46 -151 170v215c0 124 31 170 151 170h114c120 0 151 -46 151 -131v-61c0 -85 -31 -131 -151 -131zM206 762h72l154 -151
h-76l-114 87l-114 -87h-76z" />
    <glyph glyph-name="edieresis" unicode="&#xeb;" horiz-adv-x="484" 
d="M307 232h-93v58h57c71 0 85 19 85 74v54c0 60 -14 77 -85 77h-42c-71 0 -85 -17 -85 -106v-223c0 -89 14 -106 85 -106h189v-60h-225c-120 0 -151 46 -151 170v215c0 124 31 170 151 170h114c120 0 151 -46 151 -131v-61c0 -85 -31 -131 -151 -131zM408 722v-96h-102v96
h102zM178 722v-96h-102v96h102z" />
    <glyph glyph-name="igrave" unicode="&#xec;" horiz-adv-x="278" 
d="M226 555v-555h-102v555h102zM-4 762h143l155 -151h-91z" />
    <glyph glyph-name="iacute" unicode="&#xed;" horiz-adv-x="281" 
d="M154 555v-555h-102v555h102zM139 762h143l-207 -151h-91z" />
    <glyph glyph-name="icircumflex" unicode="&#xee;" horiz-adv-x="305" 
d="M204 555v-555h-102v555h102zM117 762h72l154 -151h-76l-114 87l-114 -87h-76z" />
    <glyph glyph-name="idieresis" unicode="&#xef;" horiz-adv-x="271" 
d="M187 555v-555h-102v555h102zM302 722v-96h-102v96h102zM72 722v-96h-102v96h102z" />
    <glyph glyph-name="eth" unicode="&#xf0;" horiz-adv-x="506" 
d="M144 290v-124c0 -89 14 -106 85 -106h48c71 0 85 17 85 106v389c0 89 -14 108 -85 108h-106v58h142c120 0 151 -46 151 -170v-381c0 -124 -31 -170 -151 -170h-120c-120 0 -151 46 -151 170v116c0 124 31 170 151 170h115v-58h-79c-71 0 -85 -19 -85 -108z" />
    <glyph glyph-name="ntilde" unicode="&#xf1;" horiz-adv-x="521" 
d="M288 495h-136v-495h-102v555h274c120 0 151 -46 151 -170v-385h-102v389c0 89 -14 106 -85 106zM249 650c-21 7 -42 14 -67 14c-28 0 -46 -5 -68 -23v59c20 17 46 23 73 23c29 0 54 -10 85 -22c21 -7 42 -14 67 -14c28 0 46 5 68 23v-59c-20 -17 -46 -23 -73 -23
c-29 0 -54 10 -85 22z" />
    <glyph glyph-name="ograve" unicode="&#xf2;" horiz-adv-x="520" 
d="M193 555h134c120 0 151 -46 151 -170v-215c0 -124 -31 -170 -151 -170h-134c-120 0 -151 46 -151 170v215c0 124 31 170 151 170zM144 389v-223c0 -89 14 -106 85 -106h62c71 0 85 17 85 106v223c0 89 -14 106 -85 106h-62c-71 0 -85 -17 -85 -106zM81 762h143l155 -151
h-91z" />
    <glyph glyph-name="oacute" unicode="&#xf3;" horiz-adv-x="520" 
d="M193 555h134c120 0 151 -46 151 -170v-215c0 -124 -31 -170 -151 -170h-134c-120 0 -151 46 -151 170v215c0 124 31 170 151 170zM144 389v-223c0 -89 14 -106 85 -106h62c71 0 85 17 85 106v223c0 89 -14 106 -85 106h-62c-71 0 -85 -17 -85 -106zM296 762h143
l-207 -151h-91z" />
    <glyph glyph-name="ocircumflex" unicode="&#xf4;" horiz-adv-x="520" 
d="M193 555h134c120 0 151 -46 151 -170v-215c0 -124 -31 -170 -151 -170h-134c-120 0 -151 46 -151 170v215c0 124 31 170 151 170zM144 389v-223c0 -89 14 -106 85 -106h62c71 0 85 17 85 106v223c0 89 -14 106 -85 106h-62c-71 0 -85 -17 -85 -106zM224 762h72l154 -151
h-76l-114 87l-114 -87h-76z" />
    <glyph glyph-name="otilde" unicode="&#xf5;" horiz-adv-x="520" 
d="M193 555h134c120 0 151 -46 151 -170v-215c0 -124 -31 -170 -151 -170h-134c-120 0 -151 46 -151 170v215c0 124 31 170 151 170zM144 389v-223c0 -89 14 -106 85 -106h62c71 0 85 17 85 106v223c0 89 -14 106 -85 106h-62c-71 0 -85 -17 -85 -106zM248 650
c-21 7 -42 14 -67 14c-28 0 -46 -5 -68 -23v59c20 17 46 23 73 23c29 0 54 -10 85 -22c21 -7 42 -14 67 -14c28 0 46 5 68 23v-59c-20 -17 -46 -23 -73 -23c-29 0 -54 10 -85 22z" />
    <glyph glyph-name="odieresis" unicode="&#xf6;" horiz-adv-x="520" 
d="M193 555h134c120 0 151 -46 151 -170v-215c0 -124 -31 -170 -151 -170h-134c-120 0 -151 46 -151 170v215c0 124 31 170 151 170zM144 389v-223c0 -89 14 -106 85 -106h62c71 0 85 17 85 106v223c0 89 -14 106 -85 106h-62c-71 0 -85 -17 -85 -106zM426 722v-96h-102v96
h102zM196 722v-96h-102v96h102z" />
    <glyph glyph-name="divide" unicode="&#xf7;" 
d="M441 319h-391v61h391v-61zM298 558v-98h-105v98h105zM298 239v-98h-105v98h105z" />
    <glyph glyph-name="oslash" unicode="&#xf8;" horiz-adv-x="520" 
d="M327 0h-134c-12 0 -23 0 -34 1l-49 -101h-67l57 116c-45 23 -58 71 -58 154v215c0 124 31 170 151 170h134c12 0 24 -1 34 -2l50 102h67l-57 -117c43 -23 57 -71 57 -153v-215c0 -124 -31 -170 -151 -170zM144 389v-223c0 -22 0 -39 3 -53l185 378c-11 2 -25 4 -41 4h-62
c-71 0 -85 -17 -85 -106zM376 389c0 20 -1 37 -3 51l-184 -377c10 -2 24 -3 40 -3h62c71 0 85 17 85 106v223z" />
    <glyph glyph-name="ugrave" unicode="&#xf9;" horiz-adv-x="516" 
d="M233 60h131v495h102v-555h-269c-120 0 -151 46 -151 170v385h102v-389c0 -89 14 -106 85 -106zM79 762h143l155 -151h-91z" />
    <glyph glyph-name="uacute" unicode="&#xfa;" horiz-adv-x="516" 
d="M233 60h131v495h102v-555h-269c-120 0 -151 46 -151 170v385h102v-389c0 -89 14 -106 85 -106zM294 762h143l-207 -151h-91z" />
    <glyph glyph-name="ucircumflex" unicode="&#xfb;" horiz-adv-x="516" 
d="M233 60h131v495h102v-555h-269c-120 0 -151 46 -151 170v385h102v-389c0 -89 14 -106 85 -106zM222 762h72l154 -151h-76l-114 87l-114 -87h-76z" />
    <glyph glyph-name="udieresis" unicode="&#xfc;" horiz-adv-x="516" 
d="M233 60h131v495h102v-555h-269c-120 0 -151 46 -151 170v385h102v-389c0 -89 14 -106 85 -106zM424 722v-96h-102v96h102zM194 722v-96h-102v96h102z" />
    <glyph glyph-name="yacute" unicode="&#xfd;" horiz-adv-x="466" 
d="M222 -220h-98l62 208l-176 567h105l119 -451l126 451h96zM269 762h143l-207 -151h-91z" />
    <glyph glyph-name="thorn" unicode="&#xfe;" horiz-adv-x="513" 
d="M284 495h-77v60h113c120 0 151 -46 151 -170v-215c0 -124 -31 -170 -151 -170h-168v-220h-102v941h102v-661h132c71 0 85 17 85 106v223c0 89 -14 106 -85 106z" />
    <glyph glyph-name="ydieresis" unicode="&#xff;" horiz-adv-x="466" 
d="M222 -220h-98l62 208l-176 567h105l119 -451l126 451h96zM399 722v-96h-102v96h102zM169 722v-96h-102v96h102z" />
    <glyph glyph-name="Lcommaaccent" unicode="&#x13b;" horiz-adv-x="372" 
d="M361 60v-60h-311v701h105v-641h206zM265 -38l-37 -182h-62v182h99z" />
    <glyph glyph-name="OE" unicode="&#x152;" horiz-adv-x="691" 
d="M147 515v-334c0 -81 23 -121 77 -121h118v581h-118c-54 0 -77 -29 -77 -126zM667 60v-60h-475c-108 0 -150 68 -150 181v334c0 118 43 186 150 186h475v-60h-220v-254h149v-59h-149v-268h220z" />
    <glyph glyph-name="oe" unicode="&#x153;" horiz-adv-x="818" 
d="M641 232h-93v58h57c71 0 85 19 85 74v54c0 60 -14 77 -85 77h-42c-68 0 -85 -15 -85 -106v-223c0 -89 14 -106 85 -106h189v-60h-225c-63 0 -84 15 -100 30c-18 -14 -41 -30 -100 -30h-134c-120 0 -151 46 -151 170v215c0 124 31 170 151 170h134c44 0 77 -16 100 -31
c23 15 55 31 100 31h114c120 0 151 -46 151 -131v-61c0 -85 -31 -131 -151 -131zM144 389v-223c0 -89 14 -106 85 -106h62c71 0 85 17 85 106v223c0 89 -14 106 -85 106h-62c-71 0 -85 -17 -85 -106z" />
    <glyph glyph-name="Scaron" unicode="&#x160;" horiz-adv-x="455" 
d="M428 211c0 -144 -45 -211 -163 -211h-224v60h204c57 0 86 22 86 136c0 100 -16 118 -96 118h-76c-101 0 -136 49 -136 192c0 123 41 195 154 195h195v-60h-170c-55 0 -82 -25 -82 -121c0 -93 11 -115 82 -115h71c108 0 155 -34 155 -194zM264 757h-72l-154 151h76
l114 -87l114 87h76z" />
    <glyph glyph-name="scaron" unicode="&#x161;" horiz-adv-x="455" 
d="M430 167c0 -114 -44 -167 -161 -167h-221v60h201c57 0 88 5 88 95c0 78 -15 89 -98 89h-75c-99 0 -134 43 -134 157c0 97 40 154 152 154h193v-60h-168c-55 0 -84 -7 -84 -83c0 -74 14 -87 84 -87h70c114 0 153 -34 153 -158zM264 611h-72l-154 151h76l114 -87l114 87h76
z" />
    <glyph glyph-name="tcommaaccent" unicode="&#x163;" horiz-adv-x="299" 
d="M287 555v-60h-139v-354c0 -64 14 -81 66 -81h45v-60h-86c-96 0 -127 58 -127 134v567h102v-146h139zM209 -38l-37 -182h-62v182h99z" />
    <glyph glyph-name="Tcaron" unicode="&#x164;" horiz-adv-x="409" 
d="M401 701v-60h-144v-641h-105v641h-144v60h393zM241 757h-72l-154 151h76l114 -87l114 87h76z" />
    <glyph glyph-name="Ydieresis" unicode="&#x178;" horiz-adv-x="419" 
d="M349 701h66l-158 -355v-346h-105v348l-148 353h112l111 -275zM376 868v-96h-102v96h102zM146 868v-96h-102v96h102z" />
    <glyph glyph-name="Zcaron" unicode="&#x17d;" horiz-adv-x="434" 
d="M405 60v-60h-372v65l258 576h-251v60h363v-51l-259 -590h261zM263 757h-72l-154 151h76l114 -87l114 87h76z" />
    <glyph glyph-name="zcaron" unicode="&#x17e;" horiz-adv-x="424" 
d="M395 60v-60h-362v61l250 434h-245v60h352v-43l-247 -452h252zM248 611h-72l-154 151h76l114 -87l114 87h76z" />
    <glyph glyph-name="florin" unicode="&#x192;" horiz-adv-x="471" 
d="M410 319h-119l-54 -259c-27 -124 -68 -170 -193 -170h-44v58h19c74 0 92 19 110 108l55 263h-74v61h87l36 171c26 124 68 170 194 170h44v-58h-19c-75 0 -92 -19 -111 -108l-37 -175h106v-61z" />
    <glyph glyph-name="circumflex" unicode="&#x2c6;" horiz-adv-x="480" 
d="M204 762h72l154 -151h-76l-114 87l-114 -87h-76z" />
    <glyph glyph-name="tilde" unicode="&#x2dc;" horiz-adv-x="393" 
d="M185 650c-21 7 -42 14 -67 14c-28 0 -46 -5 -68 -23v59c20 17 46 23 73 23c29 0 54 -10 85 -22c21 -7 42 -14 67 -14c28 0 46 5 68 23v-59c-20 -17 -46 -23 -73 -23c-29 0 -54 10 -85 22z" />
    <glyph glyph-name="Omega" unicode="&#x3a9;" horiz-adv-x="538" 
d="M48 317v198c0 118 43 186 150 186h141c107 0 150 -68 150 -186v-198c0 -54 -8 -106 -52 -169l-62 -90h115v-58h-191v65l51 114c27 59 34 99 34 140v196c0 97 -23 126 -77 126h-77c-54 0 -77 -29 -77 -126v-196c0 -41 7 -81 34 -140l51 -114v-65h-191v58h115l-62 90
c-44 63 -52 115 -52 169z" />
    <glyph glyph-name="endash" unicode="&#x2013;" horiz-adv-x="477" 
d="M459 354v-60h-441v60h441z" />
    <glyph glyph-name="emdash" unicode="&#x2014;" horiz-adv-x="770" 
d="M752 354v-60h-734v60h734z" />
    <glyph glyph-name="quoteleft" unicode="&#x2018;" horiz-adv-x="190" 
d="M42 465l42 256h63v-256h-105z" />
    <glyph glyph-name="quoteright" unicode="&#x2019;" horiz-adv-x="190" 
d="M147 721l-42 -256h-63v256h105z" />
    <glyph glyph-name="quotesinglbase" unicode="&#x201a;" horiz-adv-x="190" 
d="M147 98l-42 -256h-63v256h105z" />
    <glyph glyph-name="quotedblleft" unicode="&#x201c;" horiz-adv-x="380" 
d="M42 465l42 256h63v-256h-105zM232 465l42 256h63v-256h-105z" />
    <glyph glyph-name="quotedblright" unicode="&#x201d;" horiz-adv-x="380" 
d="M147 721l-42 -256h-63v256h105zM337 721l-42 -256h-63v256h105z" />
    <glyph glyph-name="quotedblbase" unicode="&#x201e;" horiz-adv-x="380" 
d="M147 98l-42 -256h-63v256h105zM337 98l-42 -256h-63v256h105z" />
    <glyph glyph-name="dagger" unicode="&#x2020;" 
d="M276 0h-61v476h-165v61h165v164h61v-164h165v-61h-165v-476z" />
    <glyph glyph-name="daggerdbl" unicode="&#x2021;" 
d="M276 0h-61v164h-165v61h165v251h-165v61h165v164h61v-164h165v-61h-165v-251h165v-61h-165v-164z" />
    <glyph glyph-name="bullet" unicode="&#x2022;" horiz-adv-x="372" 
d="M144 515h83c75 0 95 -29 95 -106v-72c0 -77 -20 -105 -95 -105h-83c-75 0 -94 28 -94 105v72c0 77 19 106 94 106z" />
    <glyph glyph-name="ellipsis" unicode="&#x2026;" horiz-adv-x="1025" 
d="M155 98v-98h-105v98h105zM565 98v-98h-105v98h105zM975 98v-98h-105v98h105z" />
    <glyph glyph-name="perthousand" unicode="&#x2030;" horiz-adv-x="910" 
d="M82 623c0 63 18 88 77 88h66c60 0 78 -25 78 -88v-174c0 -63 -18 -88 -78 -88h-66c-59 0 -77 25 -77 88v174zM237 449v174c0 47 -3 52 -32 52h-26c-28 0 -32 -5 -32 -52v-174c0 -47 4 -52 32 -52h26c29 0 32 5 32 52zM621 701l-494 -701h-65l494 701h65zM394 252
c0 63 18 88 77 88h66c60 0 78 -25 78 -88v-174c0 -63 -18 -88 -78 -88h-66c-59 0 -77 25 -77 88v174zM549 78v174c0 47 -3 52 -32 52h-26c-28 0 -32 -5 -32 -52v-174c0 -47 4 -52 32 -52h26c29 0 32 5 32 52zM647 252c0 63 18 88 77 88h66c60 0 78 -25 78 -88v-174
c0 -63 -18 -88 -78 -88h-66c-59 0 -77 25 -77 88v174zM802 78v174c0 47 -3 52 -32 52h-26c-28 0 -32 -5 -32 -52v-174c0 -47 4 -52 32 -52h26c29 0 32 5 32 52z" />
    <glyph glyph-name="guilsinglleft" unicode="&#x2039;" horiz-adv-x="190" 
d="M169 390l-97 -70l97 -72v-89l-149 114v89l149 121v-93z" />
    <glyph glyph-name="guilsinglright" unicode="&#x203a;" horiz-adv-x="190" 
d="M117 320l-97 70v93l149 -121v-89l-149 -114v89z" />
    <glyph glyph-name="seveninferior" unicode="&#x2087;" horiz-adv-x="237" 
d="M23 304v36h195v-27l-92 -323h-69l94 314h-128z" />
    <glyph glyph-name="Euro" unicode="&#x20ac;" horiz-adv-x="458" 
d="M66 525c0 118 26 176 152 176h229l-17 -60h-180c-73 0 -77 -19 -77 -116v-61h207l-17 -60h-190v-119h155l-17 -60h-138v-54c0 -81 4 -111 77 -111h169v-60h-201c-126 0 -152 58 -152 171v54h-53l11 60h42v119h-53l11 60h42v61z" />
    <glyph glyph-name="trademark" unicode="&#x2122;" horiz-adv-x="673" 
d="M257 701v-39h-92v-308h-65v308h-84v39h241zM623 701v-347h-49v249l-81 -249h-56l-81 248v-248h-50v347h73l86 -268l85 268h73z" />
  </font>
</defs>
</svg>
